[mythtv-users] Processor Minimum Specs

Blammo blammo.doh at gmail.com
Tue Jun 24 18:55:34 UTC 2008

On Tue, Jun 24, 2008 at 11:51 AM, Blammo <blammo.doh at gmail.com> wrote:
> Even with that much horsepower in the Frontend, I still have a couple
> things I can't play back. The CPU flatlines at 100%, and the audio
> drops out every few seconds. These demos however, (40Mbps datarate
> 1080p mpeg-4 demos) are high enough tech that I'm not worried at the
> moment, but it's still something to keep in mind.

Bad form to reply to your own emaill, but here's the file I can't play:


Input #0, mpegts, from '1080p_mpeg4_demo_30sec.ts':
  Duration: 00:00:30.0, start: 1.000000, bitrate: 39735 kb/s
  Program 1
    Stream #0.0[0x1021]: Video: h264, yuv420p, 1920x1080 [PAR 1:1 DAR
16:9], 23.98 tb(r)
    Stream #0.1[0x1026](eng): Audio: liba52, 48000 Hz, 5:1, 640 kb/s
    Stream #0.2[0x102d](chi): Audio: liba52, 48000 Hz, 5:1, 448 kb/s
    Stream #0.3[0x102e](chi): Audio: liba52, 48000 Hz, stereo, 192 kb/s

More information about the mythtv-users mailing list