[mythtv] [Fwd: [mythtv-users] mythfrontend:Floating point exception]

John Sturgeon john at sturgeonfamily.com
Sun Apr 4 21:50:12 EDT 2004

I figured I'd forward this over to the 'dev' list since I'm using the 
CVS build.

John <><

-------- Original Message --------
Subject: 	[mythtv-users] mythfrontend:Floating point exception
Date: 	Sun, 04 Apr 2004 12:51:13 -0700
From: 	John Sturgeon <john at sturgeonfamily.com>
Reply-To: 	Discussion about mythtv <mythtv-users at mythtv.org>
To: 	mythtv-users at mythtv.org

In my month-long (so far) quest to watch HDTV in Myth (I'm getting 
closer.. I think) I've run into a bit of a road block.  If I run 
mythfrontend, and select 'Watch TV' (and I know I'm tuned to a 'good' 
station, mythfrontend crashes with the following output:

Input #0, mpegts, from 'rbuf://':
 Stream #0.0[0x11]: Video: mpeg2video, 704x480, 29.97 fps
 Stream #0.1[0x14]: Audio: ac3, 48000 Hz, stereo, 384 kb/s
2004-04-04 12:38:53 Opening ALSA audio device 'iec958'.
Floating point exception

I'm using the CVS build from ATrpms:
[root at localhost tools]# rpm -q mythtv

Any help would be appreciated.


John <><

mythtv-users mailing list
mythtv-users at mythtv.org

More information about the mythtv-dev mailing list