[mythtv-commits] Ticket #13008: AFD: Unknown decoding error

MythTV noreply at mythtv.org
Mon Mar 6 17:41:14 UTC 2017


#13008: AFD: Unknown decoding error
----------------------------------+-----------------------------
 Reporter:  ksalmela@…            |          Owner:
     Type:  Bug Report - General  |         Status:  new
 Priority:  minor                 |      Milestone:  unknown
Component:  MythTV - DVB          |        Version:  Unspecified
 Severity:  medium                |     Resolution:
 Keywords:  audio afd 0 channels  |  Ticket locked:  0
----------------------------------+-----------------------------

Comment (by ksalmela@…):

 This is what ffplay finds on that .ts:

 {{{
 Input #0, mpegts, from '8002_20170306130000.ts':
   Duration: 00:34:48.43, start: 81836.798367, bitrate: 3435 kb/s
   Program 1
     Stream #0:0[0x201]: Video: mpeg2video (Main) ([2][0][0][0] / 0x0002),
 yuv420p(tv), 720x576 [SAR 64:45 DAR 16:9], max. 15000 kb/s, 25 fps, 25
 tbr, 90k
 tbn, 50 tbc
     Stream #0:1[0x294](fin): Audio: mp2 ([3][0][0][0] / 0x0003), 48000 Hz,
 stereo, s16p, 224 kb/s
     Stream #0:2[0x298](dut): Audio: mp2 ([3][0][0][0] / 0x0003), 48000 Hz,
 stereo, s16p, 160 kb/s (visual impaired)
     Stream #0:3[0x7eb](fin): Subtitle: dvb_subtitle ([6][0][0][0] /
 0x0006)
     Stream #0:4[0x7ec](swe): Subtitle: dvb_subtitle ([6][0][0][0] /
 0x0006)
     Stream #0:5[0x803](dut): Subtitle: dvb_subtitle ([6][0][0][0] /
 0x0006)
     Stream #0:6[0x1388](fin): Subtitle: dvb_teletext ([6][0][0][0] /
 0x0006), 492x250
     Stream #0:7[0x1772]: Unknown: none ([5][0][0][0] / 0x0005)
     Stream #0:8[0x802](dut): Subtitle: dvb_subtitle ([6][0][0][0] /
 0x0006)
 }}}

--
Ticket URL: <https://code.mythtv.org/trac/ticket/13008#comment:1>
MythTV <http://www.mythtv.org>
MythTV Media Center


More information about the mythtv-commits mailing list