[mythtv-users] frontend coredump

James Linder jam at tigger.ws
Fri Nov 13 14:08:03 UTC 2020


Hi
one station makes recordings that core dump when edited.
(I've not been thorough enough to say it is all their HD or just some of their HD. No other channel does this.
$ mythffprobe
. . .
[mp3float @ 0xe65dc0] Header missing
[mpegts @ 0xe60b80] PES packet size mismatch
    Last message repeated 1 times
Input #0, mpegts, from '/store/1073_20191004124000.ts':
  Duration: 04:01:57.88, start: 88315.054756, bitrate: 3106 kb/s
    Stream #0:0[0x631]: Video: mpeg2video (Main), yuv420p(tv, top first), 720x576 [SAR 64:45 DAR 16:9], 25 fps, 25 tbr, 90k tbn, 50 tbc
    Stream #0:1[0x632](eng): Audio: mp2, 48000 Hz, stereo, fltp, 256 kb/s
    Stream #0:2[0x634](eng): Subtitle: dvb_teletext
Unsupported codec with id 94215 for input stream 2
. . .
There is rubbish here for 1 it is NOT a 4 hour movie.

Is this an artifact of
damaged recording
funny format being transmitted
or a mythtv bug that needs a ticket
It was recorded from 7HD even though it is clearly not hd.

James



More information about the mythtv-users mailing list