[mythtv-users] Suggested bitrate for transcoding HD Mpeg 2 to Mpeg 4

Neil Salstrom salstrom at gmail.com
Fri Jun 3 04:58:31 UTC 2011

On Thu, Jun 2, 2011 at 6:17 PM, Neil Salstrom <salstrom at gmail.com> wrote:

>    Stream #0.0[0x31]: Video: mpeg2video, yuv420p, 1280x720 [PAR 1:1
> DAR 16:9], 38800 kb/s, 59.96 fps, 59.94 tbr, 90k tbn, 119.88 tbc
>    Stream #0.1[0x34](eng): Audio: ac3, 48000 Hz, 5.1, s16, 448 kb/s
> File for preset 'hq' not found
> Transcode failed
> mythtv at htpc:~$
> Any ideas?  I did this by file name because I was not sure what the
> job number was.  Can you give any insight as to what may be going on?
> Thanks!!!

Ok, talking to myself here... Just in case anyone else had this same
issue.  I'm using Debian Stable (Squeeze).  The ffmpeg in Debian
Multimedia does not have a 'hq' preset.  In the script I changed the
'hq' callout to 'slow' and it's working.  Here is my list of potential

htpc:/home/mythtv# find /usr -iname '*.ffpreset'

At this point I'm not sure the differnce between them but I picked
slow just to test.  I've not watched the resulting file but it seems
to be working now.


More information about the mythtv-users mailing list