[mythtv-users] mythtranscode crash

Johan Reinalda johan at global.thunderbird.edu
Thu Jun 23 20:21:08 UTC 2005

I am trying to get some audio ripped from some recording made with a pvr-150 
in 720x480/48KHz mode. This crashes on all of recordings as below.

Any ideas? (this is on 0.18.1, x86_64)



[root at myth-prod recordings]# mythtranscode -i 
1000_20050619070700_20050619073500.nuv --profile autodetect --fifodir 
/tmp --fifosync &
Stream: 0 Type: 0
Stream: 1 Type: 1
Input #0, mpeg, from '1000_20050619070700_20050619073500.nuv':
  Stream #0.0: Video: mpeg2video, 720x480, 29.97 fps, 6000 kb/s
  Stream #0.1: Audio: mp2, 48000 Hz, stereo, 384 kb/s
mythtranscode: mpeg2trans.cpp:668: bool MPEG2trans::process_video(AVPacket*, 
bool): Assertion `0' failed.
[1]+  Aborted

More information about the mythtv-users mailing list