[mythtv-users] PVR-250 always feeds 720x480

Michael Keller samsara at tulsaconnect.com
Wed Sep 8 22:07:12 EDT 2004

2004-09-08 21:00:00 Changing from RecordingOnly to None
Input #0, mpeg, from '/pvr/1008_20040908203000_20040908210000.nuv':
   Stream #0.0: Video: mpeg2video, 720x480, 29.97 fps
   Stream #0.1: Audio: mp2, 48000 Hz, stereo, 192 kb/s

PVR-250 with the iTVC16 chipset. Tried the 17 and 18a firmware from Hauppauge. 
This is set to DVD, 480x480 Square, yet the recording comes out 720x480.

No matter what I've done, the stream is 720x480. The audio does appear to 
reflect what I put in the recording profile.

What am I doing wrong?


More information about the mythtv-users mailing list