[mythtv-users] IOC_GET_FB error after recording

Peter Arzamendi parzamendi at sbcglobal.net
Fri Mar 26 23:26:47 EST 2004


The only time I get this error message is after myth records a show.
Here is the message from mythfrontend

Input #0, mpeg, from
'/var/video/3040_20040326210000_20040326220000.nuv':
  Stream #0.0: Video: mpeg2video, 640x480, 29.97 fps
  Stream #0.1: Audio: mp2, 48000 Hz, stereo, 384 kb/s
IVTV_IOC_GET_FB: Invalid argument
2004-03-26 22:17:20 Changing from None to WatchingPreRecorded

I can cat /dev/video0 > test.mpg and play it back with out any problems.
I also sent the same e-mail to the ivtv mailing. 

Pete

On Fri, 2004-03-26 at 21:29, Kenneth Aafl°y wrote:
> On Saturday 27 March 2004 04:00, Peter Arzamendi wrote:
> > Hello All,
> >       I'm using IVTV version 0.1.9, mythtv version .14
> > and a 	-350. After a scheduled program is done
> > recording, when I try to view the program that was
> > just recored, or watch live tv, I get the error
> > message "IVTV_IOC_GET_FB: Invalid argument". The only
> > work around I found so far is to reboot my PC (I'm
> > running the backend and front end on the samepc).
> > Anyone have any ides?
> > thank you,
> > Pete
> 
> In a hurry? This sounds like a driver problem, not MythTV related at all. 
> MythTV is merrily just showing you the driver bug. Kick be in my ass if i'm 
> wrong!
> 
> --
> 
> Kenneth Aafl°y
> ke-aa at frisurf.no
> _______________________________________________
> mythtv-users mailing list
> mythtv-users at mythtv.org
> http://mythtv.org/cgi-bin/mailman/listinfo/mythtv-users



More information about the mythtv-users mailing list