[mythtv-users] Transcoding not working

John Armstrong myth at ggrove.plus.com
Sat Mar 13 15:12:45 EST 2004

----- Original Message ----- 
From: "stan" <stanb at panix.com>
To: "Discussion about mythtv" <mythtv-users at mythtv.org>
Sent: Saturday, March 13, 2004 12:36 AM
Subject: Re: [mythtv-users] Transcoding not working

> Hmm, I have the same problem. Here's the log:
> 2004-03-12 19:34:21 Transcoding from
/myth/tv/1064_20040311100000_20040311103000.nuv to
> /myth/tv/1064_20040311100000_20040311103000.nuv.tmp
> Input #0, mpeg, from '/myth/tv/1064_20040311100000_20040311103000.nuv':
> Stream #0.0: Video: mpeg2video, 480x480, 29.97 fps
> Stream #0.1: Audio: mp2, 48000 Hz, stereo, 384 kb/s
> Unknown video codec: strange error flushing buffer ...
> Anyone know how to solve this?
I had the same problem. It went away after I had a play around with some of
the transcoder settings in recording profiles.
I thought that I fixed it by changing the codec from RTJpeg to MPEG4 for the
MPEG2 transcoder, but it still works now if I change it back.

More information about the mythtv-users mailing list