[mythtv-users] Transcoding not working

stan stanb at panix.com
Fri Mar 12 19:36:01 EST 2004


On Fri, Mar 12, 2004 at 12:01:13PM -0500, Jason Donahue wrote:
> Hello,
> 
> I recently started playing with transcoding because I need more space. I
> basically did a "let's see if it works", and while watching a recording,
> hit "X". The screen popped up the message "Transcoding"
> 
> And I watched the backend status, saw something about Transcoding
> blahblah.nuv blah blah. But then there was what looked like an error
> about "unknown codec". There is a .nuv.tmp file which LOOKS like it was
> the attempted transcode. But after 3 days, the origianl 2GB nuv is still
> there, and the .nuv.tmp has not been altered.
> 
> Is this an obvious one, or am I going to have to dig deaper?
> 

Hmm, I have the same problem. Here's the log:

2004-03-12 19:34:21 Transcoding from /myth/tv/1064_20040311100000_20040311103000.nuv to
/myth/tv/1064_20040311100000_20040311103000.nuv.tmp
Input #0, mpeg, from '/myth/tv/1064_20040311100000_20040311103000.nuv':
Stream #0.0: Video: mpeg2video, 480x480, 29.97 fps
Stream #0.1: Audio: mp2, 48000 Hz, stereo, 384 kb/s
Unknown video codec: strange error flushing buffer ...


Anyone know how to solve this?

-- 
"They that would give up essential liberty for temporary safety deserve
neither liberty nor safety."
						-- Benjamin Franklin


More information about the mythtv-users mailing list