[mythtv-users] DVB-T on Epia Nehemia M10000

Craig Garvie cgarviereg at yahoo.co.uk
Tue Mar 2 06:45:57 EST 2004


I posted yesterday , as again i use Epia Nehemia M10000, and can stream ok from card and watch using mplayer, 
 
But am getting the whole box crashing, when try to watch live tv. 
 
I await any responce with interest
 
Craig


David Lodeiro <dlodeiro at inspired.net.au> wrote:
I've got a wierd problem occuring when it try to watch tv under myth tv ( the 
card is functioning fine, I can use dvbstream and mplayer to watch it, and I 
have set up mythtv with this card, avermedia dvb-t, on a different 
motherboard ) 

If I select watch live tv, mythfrontend just crashes and the error on the 
terminal where I started mythfrontend is simply 

Unknown codec: 4

Recording works fine if I schedule it and dont watch it. But when I go to 
watch the recording under myth, mythfrontend crashes and again the same 
error, Ill include the few lines before it

Input #0, mpeg, from 
'/mnt/store//1001_20040302104300_20040302104300.nuv':
Stream #0.0: Video: mpeg2video, 720x576, 25.00 fps
Stream #0.1: Audio: mp2, 48000 Hz, stereo, 256 kb/s
Input #0, mpeg, from 
'/mnt/store//1001_20040302104300_20040302104300.nuv':
Stream #0.0: Video: mpeg2video, 720x576, 25.00 fps
Stream #0.1: Audio: mp2, 48000 Hz, stereo, 256 kb/s
Unknown codec: 4
bash-2.05b#

I'm pretty sure the onboard decoder is working as mplayer only uses 15 - 25 % 
whilst watching a divx movie.

Does anyone have any ideas?

Thanks in advance

David Lodeiro
_______________________________________________
mythtv-users mailing list
mythtv-users at mythtv.org
http://mythtv.org/cgi-bin/mailman/listinfo/mythtv-users


---------------------------------
  Yahoo! Messenger - Communicate instantly..."Ping" your friends today! Download Messenger Now
-------------- next part --------------
An HTML attachment was scrubbed...
URL: http://mythtv.org/pipermail/mythtv-users/attachments/20040302/73e9aa80/attachment.html


More information about the mythtv-users mailing list