[mythtv-users] nuvexport Failure

mythtv at zaius1.homeunix.org mythtv at zaius1.homeunix.org
Fri Jan 2 16:24:54 EST 2004


Using Myth .13 and am trying to nuvexport.. No matter what format I pick 
to export to.. It seems to hang.. here is a clip of where it hangs..

Waiting for mythtranscode to set up the fifos.
Input #0, s16le, from 'fifodir/audout':
  Duration: N/A, bitrate: N/A
  Stream #0.0: Audio: pcm_s16le, 32000 Hz, stereo, 1024 kb/s
Input #1, rawvideo, from 'fifodir/vidout':
  Duration: N/A, bitrate: N/A
  Stream #1.0: Video: rawvideo, yuv420p, 352x240, 29.97 fps
Output #0, avi, to 'Chappelle's Show.avi':
  Stream #0.0: Video: mpeg4, 320x240, 29.97 fps, q=2-31, 800 kb/s
  Stream #0.1: Audio: mp2, 32000 Hz, stereo, 32 kb/s
Stream mapping:
  Stream #1.0 -> #0.0
  Stream #0.0 -> #0.1
Press [q] to stop encoding
frame=    3 q=2.0 size=      22kB time=0.1 bitrate=1808.4kbits/s  


Just sits there forever until I kill it.. Any ideas?


More information about the mythtv-users mailing list