[mythtv-users] Watching TV in MythTV doesn't work

Christoffer Kj°lbŠk christoffer at kjoelbaek.dk
Tue Aug 31 12:26:29 EDT 2004


Hi

I have finally got a MythTV box working, except for the TV ind card. If
I do this:
cat /dev/video0 > test.mpg
mplayer test.mpg

I get a lot of snow on my screen, like I expectet, becuase no frekvens
is set.

By, when I choose Watch TV i MythTV, I got an all black screen, and this
messages in the console:
'2004-08-31 18:21:45 Changing from None to None
2004-08-31 18:21:55 Connecting to backend server: 127.0.0.1:6543 (try 1
of 5)
2004-08-31 18:21:55 Using protocol version 8
2004-08-31 18:21:55 Using protocol version 8
2004-08-31 18:21:55 Using protocol version 8
Input #0, mpeg, from 'rbuf://127.0.0.1:6543/data/store//ringbuf1.nuv':
  Stream #0.0: Video: mpeg2video, 480x480, 25.00 fps
  Stream #0.1: Audio: mp2, 48000 Hz, stereo, 384 kb/s
2004-08-31 18:21:58 Opening OSS audio device '/dev/dsp'.
2004-08-31 18:21:58 Audio fragment size: 4096
2004-08-31 18:21:58 Using XV port 56
2004-08-31 18:21:58 Changing from None to WatchingLiveTV
X Error: BadShmSeg (invalid shared segment parameter) 169
  Major opcode:  141
  Minor opcode:  19
  Resource id:  0x3400002
X Error: BadShmSeg (invalid shared segment parameter) 169
  Major opcode:  141
  Minor opcode:  19
  Resource id:  0x3400004
X Error: BadShmSeg (invalid shared segment parameter) 169
  Major opcode:  141
  Minor opcode:  19
  Resource id:  0x3400005
X Error: BadShmSeg (invalid shared segment parameter) 169
  Major opcode:  141
  Minor opcode:  19
  Resource id:  0x3400003
X Error: BadShmSeg (invalid shared segment parameter) 169
  Major opcode:  141
  Minor opcode:  19
  Resource id:  0x3400007
X Error: BadShmSeg (invalid shared segment parameter) 169
  Major opcode:  141
  Minor opcode:  19
  Resource id:  0x3400008
X Error: BadShmSeg (invalid shared segment parameter) 169
  Major opcode:  141
  Minor opcode:  19
  Resource id:  0x3400006
X Error: BadShmSeg (invalid shared segment parameter) 169
  Major opcode:  141
  Minor opcode:  19
  Resource id:  0x340000a
X Error: BadShmSeg (invalid shared segment parameter) 169
  Major opcode:  141
  Minor opcode:  19
  Resource id:  0x340000b

What is the problem?

regards
Christoffer

-- 
~~ Christoffer Kj°lbŠk ~~~~~~~~~~~~~~~~~~~~~~~~~~~~~~~~~~
Email:		christoffer at kjoelbaek.dk
GnuPG / PGP:	http://kjoelbaek.dk/gnupg/kjoelbaek.asc
Homepage:	http://food4u.dk



More information about the mythtv-users mailing list