[mythtv] "mythbackend -v all" vs stderr

Chris Pinkham cpinkham at bc2va.org
Thu Dec 8 02:54:47 EST 2005

> stdout as well?  Note that I'm not using "-l"; I just redirected it via
> the shell.  Here's what I've got so far:
>  Input #0, mpeg, from '/myth/tv/1002_20051207215500_20051207215600.nuv':
>   Stream #0.0: Video: mpeg2video, 720x480, 29.97 fps, 6000 kb/s
>   Stream #0.1: Audio: mp2, 48000 Hz, stereo, 384 kb/s

These are from one of the libav* libs that Myth includes (but that we
try not to modify to make merging easier) and not from Myth code.


More information about the mythtv-dev mailing list